Zombie Death House (1988) 480p DVDRiP UNRATED Dual Audio [Hindi DD 2.0 Spanish 2.0] x264

Detroit 2017 English 400MB BRRip 480p ESubs
Death Wish 2018 Dual Audio Hindi HDCAM 300MB
Mandy 2018 English 350MB AMZN Web-DL 480p ESubs


renegade federal agent uses a new drug to create an army of unbeatable warriors.

Movie Info :

Release date: 1 December 1988
Format : Matroska
File size : 869 MB
Duration : 1h 32min
Language : Hindi + Spanish
IMDB : 4.2/10

Video :

ID : 1
Format : AVC
Format/Info : Advanced Video Codec
Format profile : [email protected]
Format settings : CABAC / 4 Ref Frames
Format settings, CABAC : Yes
Format settings, RefFrames : 4 frames
Codec ID : V_MPEG4/ISO/AVC
Duration : 1 h 32 min
Bit rate : 1 055 kb/s
Width : 720 pixels
Height : 576 pixels
Display aspect ratio : 5:4
Frame rate mode : Constant
Frame rate : 25.000 FPS
Standard : PAL
Color space : YUV
Chroma subsampling : 4:2:0
Bit depth : 8 bits
Scan type : Progressive
Bits/(Pixel*Frame) : 0.102
Stream size : 699 MiB (80%)
Title : HdFree4U.Com

Audio 1:

ID : 2
Format : AAC
Format/Info : Advanced Audio Codec
Format profile : LC
Codec ID : A_AAC-2
Duration : 1 h 32 min
Bit rate : 61.5 kb/s
Channel(s) : 2 channels
Channel positions : Front: L R
Sampling rate : 48.0 kHz
Frame rate : 46.875 FPS (1024 SPF)
Compression mode : Lossy
Stream size : 40.8 MiB (5%)
Title : HdFree4U.Com
Language : Spanish
Default : No
Forced : No

Audio 2:

ID : 3
Format : MPEG Audio
Format version : Version 1
Format profile : Layer 3
Format settings : Joint stereo / MS Stereo
Codec ID : A_MPEG/L3
Codec ID/Hint : MP3
Duration : 1 h 32 min
Bit rate mode : Constant
Bit rate : 192 kb/s
Channel(s) : 2 channels
Sampling rate : 44.1 kHz
Frame rate : 38.281 FPS (1152 SPF)
Compression mode : Lossy
Stream size : 127 MiB (15%)
Title : HdFree4U.Com
Writing library : LAME3.98.2
Language : Hindi
Default : Yes
Forced : No

Text :

ID : 4
Format : UTF-8
Codec ID : S_TEXT/UTF8
Codec ID/Info : UTF-8 Plain Text
Duration : 1 h 29 min
Bit rate : 0 b/s
Count of elements : 3
Stream size : 66.0 Bytes (0%)
Title : HdFree4U.Com
Language : English
Default : Yes
Forced : No

Zombie-Death-House-1988-480pf5ed1137bbb15b50.jpg

-Download Link-

Click Here

File size : 869 MB

COMMENTS

WORDPRESS: 0