The Protector 2 AKA Tom Yum Goong 2 (2013) 480P 300 MB DUAL AUDIO [HIN-ENG] X264

Stardust 2007 BluRay 400MB Hindi Dubbed Dual Audio ORG 480p
Prince of Persia The Sands of Time 2010 BRRip 350Mb Hindi Dual Audio 480p
9 (2009) BluRay 250Mb Hindi Dual Audio 480p ESub

When the owner of a major elephant camp is murdered, Kham finds himself the number one suspect and on the run from both the police and the deceased’s vengeful twin nieces. But luck is on …

Movie Info :

Release date: 2 May 2014 (USA)
Format : Matroska
File size : 339 MB
Duration : 1h 44min
Language : Hindi + English
IMDB : 5.3/10

Video :

ID : 1
Format : AVC
Format/Info : Advanced Video Codec
Format profile : [email protected]
Format settings : CABAC / 9 Ref Frames
Format settings, CABAC : Yes
Format settings, RefFrames : 9 frames
Codec ID : V_MPEG4/ISO/AVC
Duration : 1 h 44 min
Nominal bit rate : 1 179 kb/s
Width : 1 280 pixels
Height : 544 pixels
Display aspect ratio : 2.35:1
Frame rate mode : Constant
Frame rate : 23.976 (24000/1001) FPS
Color space : YUV
Chroma subsampling : 4:2:0
Bit depth : 8 bits
Scan type : Progressive
Bits/(Pixel*Frame) : 0.071
Title : HdFree4U.com

Audio 1:

ID : 2
Format : AC-3
Format/Info : Audio Coding 3
Codec ID : A_AC3
Duration : 1 h 44 min
Bit rate mode : Constant
Bit rate : 192 kb/s
Channel(s) : 6 channels
Channel positions : Front: L C R, Side: L R, LFE
Sampling rate : 48.0 kHz
Frame rate : 31.250 FPS (1536 SPF)
Bit depth : 16 bits
Compression mode : Lossy
Stream size : 144 MiB
Title : HdFree4U.com
Language : English
Service kind : Complete Main
Default : No
Forced : No

Audio 2:

ID : 3
Format : MPEG Audio
Format version : Version 1
Format profile : Layer 3
Format settings : Joint stereo / MS Stereo
Codec ID : A_MPEG/L3
Codec ID/Hint : MP3
Duration : 1 h 44 min
Bit rate mode : Constant
Bit rate : 224 kb/s
Channel(s) : 2 channels
Sampling rate : 44.1 kHz
Compression mode : Lossy
Stream size : 168 MiB
Title : HdFree4U.com
Writing library : LAME3.98.2
Language : Hindi
Default : Yes
Forced : No

Text :

ID : 4
Format : UTF-8
Codec ID : S_TEXT/UTF8
Codec ID/Info : UTF-8 Plain Text
Title : HdFree4U.com
Language : English
Default : Yes
Forced : No

The-Protector-2-AKA-Tom-Yum-Goong-2-2013gha3087df27e853add.jpg

-Download Link-

Click Here

File size : 339 MB

COMMENTS

WORDPRESS: 0