The Gruffalos Child (2011) 720p BluRay Dual Audio [Hindi DD 2.0-English] x264

Mass Leader (2017) Hindi Dub 720p WEBHD AAC x264
Pokemon Jirachi Wish Maker (2003) 720p HDTV Dual Audio [Hindi DD 2.0 English 2.0] x264
Barbie Dolphin Magic (2017) 1080p WEB-DL Dual Audio ORG [Hindi DD 2.0 – English DD 5.1] ESub

After learning about the Big Bad Mouse, little Gruffalo chooses to ignore her father’s warnings and embarks on a journey to find the creature in the dangerously cold winter.

Movie Info :

Release date: December 2011 (USA)
Format : Matroska
File size : 298 MB
Duration : 26min
Language : Hindi + English
IMDB : 7.1/10

Video :

ID : 1
Format : AVC
Format/Info : Advanced Video Codec
Format profile : [email protected]
Format settings : CABAC / 8 Ref Frames
Format settings, CABAC : Yes
Format settings, RefFrames : 8 frames
Codec ID : V_MPEG4/ISO/AVC
Duration : 26 min 2 s
Bit rate : 1 200 kb/s
Width : 1 280 pixels
Height : 720 pixels
Display aspect ratio : 16:9
Frame rate mode : Constant
Frame rate : 25.000 FPS
Color space : YUV
Chroma subsampling : 4:2:0
Bit depth : 8 bits
Scan type : Progressive
Bits/(Pixel*Frame) : 0.052
Stream size : 224 MiB (75%)
Title : HdFree4U.Com

Audio 1:

ID : 2
Format : AAC
Format/Info : Advanced Audio Codec
Format profile : LC
Codec ID : A_AAC-2
Duration : 26 min 41 s
Bit rate : 162 kb/s
Channel(s) : 2 channels
Channel positions : Front: L R
Sampling rate : 48.0 kHz
Frame rate : 46.875 FPS (1024 SPF)
Compression mode : Lossy
Stream size : 31.0 MiB (10%)
Title : HdFree4U.Com
Language : English
Default : No
Forced : No

Audio 2:

ID : 3
Format : MPEG Audio
Format version : Version 1
Format profile : Layer 3
Format settings : Joint stereo / MS Stereo
Codec ID : A_MPEG/L3
Codec ID/Hint : MP3
Duration : 26 min 41 s
Bit rate mode : Constant
Bit rate : 224 kb/s
Channel(s) : 2 channels
Sampling rate : 44.1 kHz
Frame rate : 38.281 FPS (1152 SPF)
Compression mode : Lossy
Stream size : 42.8 MiB (14%)
Title : HdFree4U.Com
Writing library : LAME3.98.2
Language : Hindi
Default : Yes
Forced : No

Text :

ID : 4
Format : UTF-8
Codec ID : S_TEXT/UTF8
Codec ID/Info : UTF-8 Plain Text
Duration : 23 min 16 s
Bit rate : 0 b/s
Count of elements : 3
Stream size : 61.0 Bytes (0%)
Title : HdFree4U.Com
Language : English
Default : Yes
Forced : No

The-Gruffalos-Child-2011-720p8df7a8cb1c09e2db.jpg

-Download Link-

Click Here

File size : 298 MB

COMMENTS

WORDPRESS: 0