The Gruffalo (2009) 720p BluRay Dual Audio [Hindi DD 2.0 -English 2.0] x264

The Lion King 3 – Hakuna Matata (2004) BRRip [Dual-Audio] [Eng-Hindi] x264
Naruto Shippuuden Movie 7 – The Last (2014) 720p Bluray English Dubbed x264
NARUTO SHIPPUUDEN MOVIE 4 – THE LOST TOWER (2010) 720P Bluray English Dubbed x264

A mouse goes for a stroll in the forest and encounters various predators. In order to save himself, he uses his wit and makes up a monster named Gruffalo.

Movie Info :

Release date: 25 December 2009 (United Kingdom)
Format : Matroska
File size : 307 MB
Duration : 26min
Language : Hindi + English
IMDB : 7.5/10

Video :

ID : 1
Format : AVC
Format/Info : Advanced Video Codec
Format profile : [email protected]
Format settings : CABAC / 4 Ref Frames
Format settings, CABAC : Yes
Format settings, RefFrames : 4 frames
Codec ID : V_MPEG4/ISO/AVC
Duration : 27 min 0 s
Bit rate : 1 199 kb/s
Width : 1 280 pixels
Height : 720 pixels
Display aspect ratio : 16:9
Frame rate mode : Constant
Frame rate : 25.000 FPS
Color space : YUV
Chroma subsampling : 4:2:0
Bit depth : 8 bits
Scan type : Progressive
Bits/(Pixel*Frame) : 0.052
Stream size : 232 MiB (75%)
Title : HdFree4U.Com

Audio 1:

ID : 2
Format : AAC
Format/Info : Advanced Audio Codec
Format profile : LC
Codec ID : A_AAC-2
Duration : 27 min 0 s
Bit rate : 162 kb/s
Channel(s) : 2 channels
Channel positions : Front: L R
Sampling rate : 48.0 kHz
Frame rate : 46.875 FPS (1024 SPF)
Compression mode : Lossy
Stream size : 31.4 MiB (10%)
Title : HdFree4U.Com
Language : English
Default : No
Forced : No

Audio 2:

ID : 3
Format : MPEG Audio
Format version : Version 1
Format profile : Layer 3
Format settings : Joint stereo
Codec ID : A_MPEG/L3
Codec ID/Hint : MP3
Duration : 27 min 0 s
Bit rate mode : Constant
Bit rate : 224 kb/s
Channel(s) : 2 channels
Sampling rate : 44.1 kHz
Frame rate : 38.281 FPS (1152 SPF)
Compression mode : Lossy
Stream size : 43.3 MiB (14%)
Title : HdFree4U.Com
Writing library : LAME3.98.2
Language : Hindi
Default : Yes
Forced : No

Text :

ID : 4
Format : UTF-8
Codec ID : S_TEXT/UTF8
Codec ID/Info : UTF-8 Plain Text
Duration : 23 min 16 s
Bit rate : 0 b/s
Count of elements : 3
Stream size : 61.0 Bytes (0%)
Title : HdFree4U.Com
Language : English
Default : Yes
Forced : No

The-Gruffalo-2009-720p-Bl2574c9898cdb0272.jpg

-Download Link-

Click Here

File size : 307 MB

COMMENTS

WORDPRESS: 0