Lego Marvel Super Heroes Avengers Reassembled (2015) 720p WEBRiP Eng Subs Dual Audio [Hindi ORG DD 2.0 – English 2.0] x264

Firebreather (2010) 720p BluRay Dual Audio [English – Hindi] Esub
The Lion King 2 Simbas Pride 1998 720p BluRay x264 Dual Audio [Hindi – English 2.0] ESub
DC Super Hero Girls Super Hero High (2016) x264 720p HDTV Dual Audio [Hindi DD 2.0 English 5.1] Esubs

The Avengers are forced to “party” with Ultron when he seeks to disassemble the team by taking control of Iron Man’s armor and enact a nefarious scheme to take over the world.

Movie Info :

Release date: 16 November 2015
Format : Matroska
File size : 205 MB
Duration : 22min
Language : Hindi + English
IMDB : 6.4/10

Video :

ID : 1
Format : AVC
Format/Info : Advanced Video Codec
Format profile : [email protected]
Format settings : CABAC / 3 Ref Frames
Format settings, CABAC : Yes
Format settings, RefFrames : 3 frames
Codec ID : V_MPEG4/ISO/AVC
Duration : 22 min 11 s
Width : 1 280 pixels
Height : 720 pixels
Display aspect ratio : 16:9
Frame rate mode : Constant
Frame rate : 23.976 (24000/1001) FPS
Color space : YUV
Chroma subsampling : 4:2:0
Bit depth : 8 bits
Scan type : Progressive
Title : HdFree4U.Com
Language : English
Default : Yes
Forced : No
Color range : Limited
Color primaries : BT.709
Transfer characteristics : BT.709
Matrix coefficients : BT.709

Audio 1:

ID : 2
Format : MPEG Audio
Format version : Version 1
Format profile : Layer 3
Format settings : Joint stereo / MS Stereo
Codec ID : A_MPEG/L3
Codec ID/Hint : MP3
Duration : 22 min 11 s
Bit rate mode : Constant
Bit rate : 128 kb/s
Channel(s) : 2 channels
Sampling rate : 44.1 kHz
Compression mode : Lossy
Stream size : 20.3 MiB
Title : HdFree4U.Com
Writing library : LAME3.98.2
Language : Hindi
Default : No
Forced : No

Audio 2:

ID : 3
Format : AC-3
Format/Info : Audio Coding 3
Codec ID : A_AC3
Duration : 22 min 11 s
Bit rate mode : Constant
Bit rate : 128 kb/s
Channel(s) : 2 channels
Channel positions : Front: L R
Sampling rate : 48.0 kHz
Frame rate : 31.250 FPS (1536 SPF)
Bit depth : 16 bits
Compression mode : Lossy
Stream size : 20.3 MiB
Title : HdFree4U.Com
Language : Hindi
Service kind : Complete Main
Default : Yes
Forced : Yes

Text :

ID : 4
Format : UTF-8
Codec ID : S_TEXT/UTF8
Codec ID/Info : UTF-8 Plain Text
Title : HdFree4U.Com
Language : English
Default : Yes
Forced : No

Lego-Marvel-Super-Heroes-Avengers-Reassembled-2015-45218b2ae476457825f8.jpg

-Download Link-

Click Here

File size : 205 MB

COMMENTS

WORDPRESS: 0