Face Off 1997 480p 400 MB BRRip x264 Dual Audio [Hindi – English 2.0] ESub

Billionaire Boys Club 2018 English 300MB Web-DL 480p ESubs
Sophie’s Choice 1982 Hindi Dual Audio 450MB BluRay 480p
The Nutcracker (2010) 480p 300 MB BluRay AC3 E- Subs Dual Audio [Hindi-English]_x264

Sean Archer, an FBI Agent, undergoes plastic surgery in order to impersonate and get hold of his son’s killer and his arch-enemy, Castor Troy. Trouble brews when Castor begins impersonating Sean.

Movie Info :

Release date: 19 June 1997
Format : Matroska
File size : 452 MB
Duration : 2h 18min
Language : Hindi + English
IMDB : 7.3/10

Video :

ID : 1
Format : AVC
Format/Info : Advanced Video Codec
Format profile : [email protected]
Format settings, CABAC : Yes
Format settings, RefFrames : 12 frames
Codec ID : V_MPEG4/ISO/AVC
Duration : 2 h 18 min
Bit rate : 757 kb/s
Width : 1 280 pixels
Height : 544 pixels
Display aspect ratio : 2.35:1
Frame rate mode : Constant
Frame rate : 23.976 (24000/1001) FPS
Color space : YUV
Chroma subsampling : 4:2:0
Bit depth : 8 bits
Scan type : Progressive
Bits/(Pixel*Frame) : 0.045
Stream size : 752 MiB (82%)
Title : HdFree4U.Com

Audio 1:

ID : 2
Format : MPEG Audio
Format version : Version 1
Format profile : Layer 3
Mode : Joint stereo
Mode extension : MS Stereo
Codec ID : A_MPEG/L3
Codec ID/Hint : MP3
Duration : 2 h 14 min
Bit rate mode : Constant
Bit rate : 64.0 kb/s
Channel(s) : 2 channels
Sampling rate : 44.1 kHz
Frame rate : 38.281 FPS (1152 SPF)
Compression mode : Lossy
Stream size : 61.6 MiB (7%)
Title : HdFree4U.Com
Writing library : LAME3.98.2
Language : Hindi
Default : Yes
Forced : No

Audio 2:

ID : 3
Format : AAC
Format/Info : Advanced Audio Codec
Format profile : LC
Codec ID : A_AAC
Duration : 2 h 18 min
Bit rate : 96.0 kb/s
Channel(s) : 2 channels
Channel positions : Front: L R
Sampling rate : 48.0 kHz
Frame rate : 46.875 FPS (1024 SPF)
Compression mode : Lossy
Stream size : 95.4 MiB (10%)
Title : HdFree4U.Com
Language : English
Default : No
Forced : No

Text :

ID : 4
Format : UTF-8
Codec ID : S_TEXT/UTF8
Codec ID/Info : UTF-8 Plain Text
Duration : 2 h 10 min
Bit rate : 38 b/s
Count of elements : 1068
Stream size : 37.2 KiB (0%)
Title : HdFree4U.Com
Language : English
Default : Yes
Forced : No

Face-Off-1997-72070bef4fb5b47d9d9.jpg

-Download Link-

Click Here

File size : 452 MB

COMMENTS

WORDPRESS: 0