Cover Me (1995) UNRATED 480p 300 MB DVDRip [Dual Audio] [Hindi 2.0 – English 2.0] x264

Coco 2017 Dual Audio ORG Hindi 720p BluRay 300mb
The Dreamers 2003 BRRip 300MB English 480p
Upside Down 2012 BluRay 300MB English 480p

A policewoman goes undercover as a model for an erotic magazine to help catch a serial killer who is preying on erotic models and strippers. FMV game Blue Heat: The Case of the Cover Girl Murders (1997) is based on the movie.

Movie Info :

Release date: 10 October 1995 (USA)
Format : Matroska
File size : 314 MB
Duration : 1h 34min
Language : Hindi + English
IMDB : 3.7/10

Video :

ID : 1
Format : AVC
Format/Info : Advanced Video Codec
Format profile : [email protected]
Format settings : CABAC / 16 Ref Frames
Format settings, CABAC : Yes
Format settings, RefFrames : 16 frames
Codec ID : V_MPEG4/ISO/AVC
Duration : 1 h 34 min
Width : 720 pixels
Height : 548 pixels
Display aspect ratio : 4:3
Frame rate mode : Constant
Frame rate : 25.000 FPS
Color space : YUV
Chroma subsampling : 4:2:0
Bit depth : 8 bits
Scan type : Progressive
Title : HdFree4U.com

Audio 1:

ID : 2
Format : AC-3
Format/Info : Audio Coding 3
Codec ID : A_AC3
Duration : 1 h 34 min
Bit rate mode : Constant
Bit rate : 96.0 kb/s
Channel(s) : 2 channels
Channel positions : Front: L R
Sampling rate : 48.0 kHz
Frame rate : 31.250 FPS (1536 SPF)
Bit depth : 16 bits
Compression mode : Lossy
Delay relative to video : -80 ms
Stream size : 65.1 MiB
Title : HdFree4U.com
Language : English
Service kind : Complete Main
Default : No
Forced : No

Audio 2:

ID : 3
Format : MPEG Audio
Format version : Version 1
Format profile : Layer 3
Format settings : Joint stereo / MS Stereo
Codec ID : A_MPEG/L3
Codec ID/Hint : MP3
Duration : 1 h 34 min
Bit rate mode : Constant
Bit rate : 192 kb/s
Channel(s) : 2 channels
Sampling rate : 44.1 kHz
Compression mode : Lossy
Delay relative to video : -80 ms
Stream size : 130 MiB
Title : HdFree4U.com
Writing library : LAME3.98.2
Language : Hindi
Default : Yes
Forced : No

Text :

ID : 4
Format : UTF-8
Codec ID : S_TEXT/UTF8
Codec ID/Info : UTF-8 Plain Text
Title : HdFree4U.com
Language : English
Default : Yes
Forced : No

18-Cover-Me-1995-DVD-Dual-Audio-English-Hindi-GOPISAHI.mkv_thumbs9c96144a3f38691b.jpg

-Download Link-

Click Here

File size : 314 MB

COMMENTS

WORDPRESS: 0