Chuttalabbai (2016) 480p 400 MB UNCUT HDRip x264 [Dual Audio] [Hindi DD 2.0 – Telugu DD 5.1]

Cloud Atlas 2012 Dual Audio Hindi 480p BluRay 500MB
Super Singh 2018 Hindi 480p HDTV 400MB
Maze Runner The Death Cure 2018 English 480p HDTC 400MB

A young man becomes involved in some confusion regarding a young woman when he returns to his home village to help his father.

Movie Info :

Release date: 19 August 2016
Format : Matroska
File size : 484 MB
Duration : 2h 28min
IMDB : 6.0/10

Video :

ID : 1
Format : AVC
Format/Info : Advanced Video Codec
Format profile : [email protected]
Format settings, CABAC : Yes
Format settings, RefFrames : 4 frames
Codec ID : V_MPEG4/ISO/AVC
Duration : 2 h 28 min
Bit rate : 1 010 kb/s
Width : 1 280 pixels
Height : 544 pixels
Display aspect ratio : 2.35:1
Frame rate mode : Constant
Frame rate : 25.000 FPS
Color space : YUV
Chroma subsampling : 4:2:0
Bit depth : 8 bits
Scan type : Progressive
Bits/(Pixel*Frame) : 0.058
Stream size : 1.05 GiB (74%)
Title : HdFree4U.Com

Audio 1:

ID : 2
Format : MPEG Audio
Format version : Version 1
Format profile : Layer 3
Mode : Joint stereo
Mode extension : MS Stereo
Codec ID : A_MPEG/L3
Codec ID/Hint : MP3
Duration : 2 h 28 min
Bit rate mode : Constant
Bit rate : 192 kb/s
Channel(s) : 2 channels
Sampling rate : 48.0 kHz
Frame rate : 41.667 FPS (1152 SPF)
Compression mode : Lossy
Stream size : 204 MiB (14%)
Title : HdFree4U.Com
Writing library : LAME3.98.2
Language : Hindi
Default : Yes
Forced : No

Audio 2:

ID : 3
Format : AC-3
Format/Info : Audio Coding 3
Format settings, Endianness : Big
Codec ID : A_AC3
Duration : 2 h 28 min
Bit rate mode : Constant
Bit rate : 160 kb/s
Channel(s) : 6 channels
Channel positions : Front: L C R, Side: L R, LFE
Sampling rate : 44.1 kHz
Frame rate : 28.711 FPS (1536 SPF)
Bit depth : 16 bits
Compression mode : Lossy
Stream size : 170 MiB (12%)
Title : HdFree4U.Com
Language : Telugu
Service kind : Complete Main
Default : No
Forced : No

Text :

ID : 4
Format : UTF-8
Codec ID : S_TEXT/UTF8
Codec ID/Info : UTF-8 Plain Text
Duration : 1 h 1 min
Bit rate : 0 b/s
Count of elements : 2
Stream size : 54.0 Bytes (0%)
Title : HdFree4U.Com
Language : English
Default : Yes
Forced : No

Chuttalabbai2016720pc453e.jpg

-Download Link-

Click Here

File size : 484 MB

 

COMMENTS

WORDPRESS: 0