[18+] Era Of Affair (2017) 720p Korean WEB-HD-RIP x264

Sierra Burgess Is a Loser 2018 English 300MB Web-DL 480p MSubs
Popstar Never Stop Never Stopping 2016 Dual Audio Hindi 480p BluRay 280mb
Den of Thieves 2018 UNRATED English 480p BRRip 400B ESubs

A CIA officer plucked from the field to become the president’s daily briefer, assuming responsibility for targeting America’s most critical threats while navigating the unique lifestyle that comes with such a high-powered job.
Movie Info :

Initial release: July 14, 2017
Format : Matroska
File size : 524 MB
Duration : 1 h 31 min
IMDB : 6.4/10 

Video:

ID : 1
Format : AVC
Format/Info : Advanced Video Codec
Format profile : [email protected]
Format settings, CABAC : Yes
Format settings, RefFrames : 3 frames
Codec ID : V_MPEG4/ISO/AVC
Duration : 1 h 14 min
Bit rate : 859 kb/s
Width : 1 280 pixels
Height : 720 pixels
Display aspect ratio : 16:9
Frame rate mode : Constant
Frame rate : 30.000 FPS
Standard : NTSC
Color space : YUV
Chroma subsampling : 4:2:0
Bit depth : 8 bits
Scan type : Progressive
Bits/(Pixel*Frame) : 0.031
Stream size : 456 MiB (87%)
Title : HdFree4U.Com
Language : English
Default : Yes
Forced : No
Color range : Limited

Audio:

ID : 3
Format : MPEG Audio
Format version : Version 1
Format profile : Layer 3
Mode : Joint stereo
Mode extension : MS Stereo
Codec ID : A_MPEG/L3
Codec ID/Hint : MP3
Duration : 1 h 14 min
Bit rate mode : Constant
Bit rate : 128 kb/s
Channel(s) : 2 channels
Sampling rate : 44.1 kHz
Frame rate : 38.281 FPS (1152 SPF)
Compression mode : Lossy
Stream size : 67.9 MiB (13%)
Title : HdFree4U.Com
Writing library : LAME3.98.2
Language : Korean
Default : Yes
Forced : No

Text:

ID : 2
Format : UTF-8
Codec ID : S_TEXT/UTF8
Codec ID/Info : UTF-8 Plain Text
Duration : 1 h 29 min
Bit rate : 0 b/s
Count of elements : 3
Stream size : 66.0 Bytes (0%)
Title : HdFree4U.Com
Language : English
Default : Yes
Forced : No

vlcsnap-2017-12-28-21h47m46s138bd718d5b82dcd44f.jpg

-Download Links-

Click Here

File Size:- 524 MB

(Visited 3 times, 1 visits today)

COMMENTS

WORDPRESS: 0