1 – Nenokkadine (2014) 480p 400 MB UNCUT BluRay x264 Eng Subs [Dual Audio DD 2.0 – Telugu DD 5.1]

Escape from Ensenada 2017 Hindi Dual Audio 280MB BluRay 480p ESubs
Sorry to Bother You 2018 English 300MB Web-DL 480p ESubs
Gone 2012 Hindi Dual Audio 300MB BluRay 480p ESubs

A rock star must overcome his psychological inhibitions to seek revenge for his parents’ death.

Movie Info :

Release date: 10 January 2014 (USA)
Format : Matroska
File size : 565 MB
Duration : 2h 50min
Language : Hindi + Telugu
IMDB : 8.4/10

Video :

ID : 1
Format : AVC
Format/Info : Advanced Video Codec
Format profile : [email protected]
Format settings : CABAC / 4 Ref Frames
Format settings, CABAC : Yes
Format settings, RefFrames : 4 frames
Codec ID : V_MPEG4/ISO/AVC
Duration : 2 h 56 min
Nominal bit rate : 869 kb/s
Width : 1 280 pixels
Height : 544 pixels
Display aspect ratio : 2.35:1
Frame rate mode : Constant
Frame rate : 24.000 FPS
Color space : YUV
Chroma subsampling : 4:2:0
Bit depth : 8 bits
Scan type : Progressive
Bits/(Pixel*Frame) : 0.052
Title : HdFree4U.com

Audio 1:

ID : 2
Format : AC-3
Format/Info : Audio Coding 3
Codec ID : A_AC3
Duration : 2 h 56 min
Bit rate mode : Constant
Bit rate : 112 kb/s
Channel(s) : 6 channels
Channel positions : Front: L C R, Side: L R, LFE
Sampling rate : 44.1 kHz
Frame rate : 28.711 FPS (1536 SPF)
Bit depth : 16 bits
Compression mode : Lossy
Stream size : 141 MiB
Title : HdFree4U.com
Language : Telugu
Service kind : Complete Main
Default : No
Forced : No

Audio 2:

ID : 3
Format : MPEG Audio
Format version : Version 1
Format profile : Layer 3
Format settings : Joint stereo / MS Stereo
Codec ID : A_MPEG/L3
Codec ID/Hint : MP3
Duration : 2 h 56 min
Bit rate mode : Constant
Bit rate : 192 kb/s
Channel(s) : 2 channels
Sampling rate : 44.1 kHz
Compression mode : Lossy
Stream size : 242 MiB
Title : HdFree4U.com
Writing library : LAME3.98.2
Language : Hindi
Default : Yes
Forced : No

Text :

ID : 4
Format : UTF-8
Codec ID : S_TEXT/UTF8
Codec ID/Info : UTF-8 Plain Text
Title : HdFree4U.com
Language : English
Default : Yes
Forced : No

1-Nenokkadine-2014ddc4bd6df1d7c3b42f.jpg

-Download Link-

Click Here

File size : 565 MB

COMMENTS

WORDPRESS: 0